Core News

Dubstep – Bass Music – Drum and Bass – House – and other sweet music styles



Gilles Peterson Worldwide 2009-06-18 – Madlib & J Rocc as guest hosts

18 June, 2009 (19:04) | Funk, Gilles Peterson, Hip Hop, Jazz, MP3 | By: Thomas of Core News

Gilles Peterson is away this so Madlib and J Rocc are taking over as guest hosts. Expect the unexpected from these two legends.
Check out other Gilles Peterson shows here and subscribe to the feed to get good music in the future :)

Gilles Peterson Worldwide 2009-06-18 – Madlib & J Rocc as guest hosts [Uploaded.net download]

Tracklist:
Madlib – Set 1
Irio De Paula Ft Stephan Gross – Unknown
Dicci Santucci – Unknown
The Hamilton Face Band – The Good Guys (Unknown)
Unknown – Unknown
The Russell Jenkins Outfit (Y.N.Q.) – The Drinking Suite (Unknown)
Kenny Cook Octet – Tunes For Pharoah(Unknown)
Thai Soul Compilation – Thai Boxing(Unknown)
Prince jazzbo – Make A Move (Unknown)
Unknown – Psychedelic Joint (Unknown)
Byron Miller – Panama (Big One Music)
Rassan Roland Kirk – The Case Of The Mystery Black Notes
Unknown – Unknown
Unknown – Unknown
Unknown – Unknown
Unknown – Unknown

J-Rocc – Set 1
Johnny Hammond – Gamblers Life (Soul Brother)
Zimbo Trio – Que Maravilla (Unknown)
Andre Penazzi – Mas Que Nada (Unknown)
J. Dilla – Nyro Beat (Unknown)
Laura Nyro – Beads Of Sweat (Columbia)
Grupo Guerra 78 – Soul Makossa (Discolanda)
Harvey Mason – Universal Rhyme (Artista)
Howard Johnson – So Fine(A&M Records)
Build An Ark – You Got To Have Freedom (J.Rocc Dub 2) (Kindred Spirits)
Funkapolitan – As The Time Goes By (London Records)
Rick James – Cold Blooded (Motown)
Roger – Maxx Axe (Warner Bros)
J Dilla – Maxx Axe Beat (Unknown)

Madlib – Set 2
Tracklisting Unavailable

J-Rocc – Set 2
Romy – Thats My L.A. (Loma)
Azymuth – Rico Suave Bossa Nova (Unknown)
J Rocc – Malcom Was Here (Unknown)
Slum Village – Players (Instrumental) (Good Vibe)
Aaliyah – Rock The Boat (Accapella) (Virgin records)
Giorgio Moroder – Theme From Midnight Express (Casablanca Records)
Hamilton Bohannon – Save Their Souls (Unknown)
J Dilla – The Heist (Original Version Loop)/Psycho
J Dilla – Wild Original (Stones Throw Records)
Andy Partridge/Phatom Captain – The History Of Rock N Roll/Brether (C&S Records)
MeShell – Pocketbook (Dilla Remix Inst) (Maverick)
Common – Come Close (Sketch 3) (MCA Records)
Mikey Dread – Turntable (Get On It) (Unknown)
Kids – Chants(Unknown)
Brother Bones – Sweet Georgia Brown (Harlem Globetrotter)
Novi Singers – Two Three Four (Polskie Nagrania Muza)
Shooby Taylor – Live Performance/Intro (Unknown)
Shooby Taylor – Gigi (Unknown)
Jose Mauro & Ana Maria Bahiana – Take It Back (Remix Original)

Comments

Comment from izmaelis
Time June 19, 2009 at 8:30 am

Muchas gracias, senior!
Too bad there’s so much unknowns or unavailables in this set. I would create CUE sheet in other case.

Comment from JackKlompis
Time June 24, 2009 at 5:46 am

please re up??? i am having trouble finding the time to record it myself but really want a copy, if you could that would be awesome

Comment from Naveen
Time September 5, 2010 at 5:56 pm

Here’s a cue sheet I created based on the track list.

I didn’t bother finding indexes for Madlib’s second set though.

Feel free to modify and update it. Enjoy!

REM DATE 2009-06-18
PERFORMER “Gilles Peterson”
TITLE “Gilles Peterson Worldwide (2009-06-18)”
FILE “Worldwide_Gilles Peterson_2009_06_18.mp3″ WAVE
TRACK 01 AUDIO
TITLE “Station Ident”
PERFORMER “BBC Radio 1″
INDEX 01 00:00:00
TRACK 02 AUDIO
TITLE “?”
PERFORMER “Irio De Paula ft. Stephan Gross”
REM COMMENT “Set 1: Madlib”
INDEX 01 00:26:59
TRACK 03 AUDIO
TITLE “?”
PERFORMER “Dicci Santucci”
REM COMMENT “Set 1: Madlib”
INDEX 01 03:52:14
TRACK 04 AUDIO
TITLE “The Good Guys”
PERFORMER “The Hamilton Face Band”
REM COMMENT “Set 1: Madlib”
INDEX 01 06:16:07
TRACK 05 AUDIO
TITLE “?”
PERFORMER “?”
REM COMMENT “Set 1: Madlib”
INDEX 01 08:23:38
TRACK 06 AUDIO
TITLE “The Drinking Suite”
PERFORMER “The Russell Jenkins Outfit (Y.N.Q.)”
REM COMMENT “Set 1: Madlib”
INDEX 01 10:45:71
TRACK 07 AUDIO
TITLE “Tunes For Pharoah”
PERFORMER “Kenny Cook Octet”
REM COMMENT “Set 1: Madlib”
INDEX 01 13:45:15
TRACK 08 AUDIO
TITLE “?”
PERFORMER “?”
REM COMMENT “Set 1: Madlib”
INDEX 01 14:45:65
TRACK 09 AUDIO
TITLE “Thai Boxing”
PERFORMER “Thai Soul Compilation”
REM COMMENT “Set 1: Madlib”
INDEX 01 15:49:39
TRACK 10 AUDIO
TITLE “Make A Move”
PERFORMER “Prince Jazzbo”
REM COMMENT “Set 1: Madlib”
INDEX 01 17:44:44
TRACK 11 AUDIO
TITLE “Psychedelic Joint”
PERFORMER “?”
REM COMMENT “Set 1: Madlib”
INDEX 01 19:04:08
TRACK 12 AUDIO
TITLE “Panama”
PERFORMER “Byron Miller”
REM COMMENT “Set 1: Madlib”
INDEX 01 20:36:21
TRACK 13 AUDIO
TITLE “The Case Of The Mystery Black Notes”
PERFORMER “Rassan Roland Kirk”
REM COMMENT “Set 1: Madlib”
INDEX 01 21:34:67
TRACK 14 AUDIO
TITLE “?”
PERFORMER “?”
REM COMMENT “Set 1: Madlib”
INDEX 01 22:39:66
TRACK 15 AUDIO
TITLE “?”
PERFORMER “?”
REM COMMENT “Set 1: Madlib”
INDEX 01 24:51:56
TRACK 16 AUDIO
TITLE “?”
PERFORMER “?”
REM COMMENT “Set 1: Madlib”
INDEX 01 25:12:64
TRACK 17 AUDIO
TITLE “?”
PERFORMER “?”
REM COMMENT “Set 1: Madlib”
INDEX 01 26:03:40
TRACK 18 AUDIO
TITLE “?”
PERFORMER “?”
REM COMMENT “Set 1: Madlib”
REM INDEX 01 26:59:21
INDEX 01 27:06:28
TRACK 19 AUDIO
TITLE “?”
PERFORMER “?”
REM COMMENT “Set 1: Madlib”
INDEX 01 28:19:24
TRACK 20 AUDIO
TITLE “Interlude / ?”
PERFORMER “J-Rocc & Madlib / ?”
REM COMMENT “Set 1: Madlib”
INDEX 01 29:24:38
TRACK 21 AUDIO
TITLE “Gambler’s Life”
PERFORMER “Johnny Hammond”
REM COMMENT “Set 2: J-Rocc”
INDEX 01 31:16:71
TRACK 22 AUDIO
TITLE “Que Maravilla”
PERFORMER “Zimbo Trio”
REM COMMENT “Set 2: J-Rocc”
INDEX 01 35:15:31
TRACK 23 AUDIO
TITLE “Mas Que Nada”
PERFORMER “Andre Penazzi”
REM COMMENT “Set 2: J-Rocc”
INDEX 01 38:26:67
TRACK 24 AUDIO
TITLE “Nyro Beat”
PERFORMER “J Dilla”
REM COMMENT “Set 2: J-Rocc”
INDEX 01 40:27:68
TRACK 25 AUDIO
TITLE “Beads Of Sweat”
PERFORMER “Laura Nyro”
REM COMMENT “Set 2: J-Rocc”
INDEX 01 41:42:70
TRACK 26 AUDIO
TITLE “Soul Makossa”
PERFORMER “Grupo Guerra 78″
REM COMMENT “Set 2: J-Rocc”
INDEX 01 43:11:17
TRACK 27 AUDIO
TITLE “Universal Rhyme”
PERFORMER “Harvey Mason”
REM COMMENT “Set 2: J-Rocc”
INDEX 01 44:22:38
TRACK 28 AUDIO
TITLE “So Fine”
PERFORMER “Howard Johnson”
REM COMMENT “Set 2: J-Rocc”
INDEX 01 47:05:17
TRACK 29 AUDIO
TITLE “You Got To Have Freedom (J-Rocc Dub 2)”
PERFORMER “Build An Ark”
REM COMMENT “Set 2: J-Rocc”
INDEX 01 48:30:64
TRACK 30 AUDIO
TITLE “As The Time Goes By”
PERFORMER “Funkapolitan”
REM COMMENT “Set 2: J-Rocc”
INDEX 01 52:01:60
TRACK 31 AUDIO
TITLE “Cold Blooded”
PERFORMER “Rick James”
REM COMMENT “Set 2: J-Rocc”
INDEX 01 56:26:18
TRACK 32 AUDIO
TITLE “Interlude / Maxx Axe / Maxx Axe Beat”
PERFORMER “Madlib & J-Rocc / Roger / J Dilla”
REM COMMENT “Set 2: J-Rocc”
INDEX 01 58:41:47
TRACK 33 AUDIO
TITLE “?”
PERFORMER “?”
REM COMMENT “Set 3: Madlib”
INDEX 01 60:58:69
TRACK 34 AUDIO
TITLE “Interlude / ?”
PERFORMER “J-Rocc & Madlib / ?”
REM COMMENT “Set 3: Madlib”
INDEX 01 90:39:40
TRACK 35 AUDIO
TITLE “That’s My L.A.”
PERFORMER “Romy”
REM COMMENT “Set 4: J-Rocc”
INDEX 01 91:28:24
TRACK 36 AUDIO
TITLE “Rico Suave Bossa Nova”
PERFORMER “Azymuth”
REM COMMENT “Set 4: J-Rocc”
INDEX 01 95:17:26
TRACK 37 AUDIO
TITLE “Malcom Was Here”
PERFORMER “J-Rocc”
REM COMMENT “Set 4: J-Rocc”
INDEX 01 98:13:62
TRACK 38 AUDIO
TITLE “Players”
PERFORMER “Slum Village”
REM COMMENT “Set 4: J-Rocc”
INDEX 01 99:59:34
TRACK 39 AUDIO
TITLE “Rock The Boat”
PERFORMER “Aaliyah”
REM COMMENT “Set 4: J-Rocc”
INDEX 01 100:48:31
TRACK 40 AUDIO
TITLE “Theme From Midnight Express”
PERFORMER “Giogio Moroder”
REM COMMENT “Set 4: J-Rocc”
INDEX 01 102:02:08
TRACK 41 AUDIO
TITLE “Save Their Souls”
PERFORMER “Hamilton Bohannon”
REM COMMENT “Set 4: J-Rocc”
INDEX 01 103:08:52
TRACK 42 AUDIO
TITLE “The Heist”
PERFORMER “J Dilla”
REM COMMENT “Set 4: J-Rocc”
INDEX 01 104:27:25
TRACK 43 AUDIO
TITLE “Wild Original”
PERFORMER “J Dilla”
REM COMMENT “Set 4: J-Rocc”
INDEX 01 105:22:49
TRACK 44 AUDIO
TITLE “The History Of Rock N Roll/Brether”
PERFORMER “Andy Partidge/Phantom Captain”
REM COMMENT “Set 4: J-Rocc”
INDEX 01 106:21:00
TRACK 45 AUDIO
TITLE “Pocketbook (J Dilla Remix)”
PERFORMER “Me’Shell”
REM COMMENT “Set 4: J-Rocc”
INDEX 01 107:49:59
TRACK 46 AUDIO
TITLE “Come Close (Sketch 3)”
PERFORMER “Common”
REM COMMENT “Set 4: J-Rocc”
INDEX 01 109:43:17
TRACK 47 AUDIO
TITLE “Turtable (Get On It)”
PERFORMER “Mikey Dread”
REM COMMENT “Set 4: J-Rocc”
INDEX 01 110:59:09
TRACK 48 AUDIO
TITLE “Chants”
PERFORMER “Kids”
REM COMMENT “Set 4: J-Rocc”
INDEX 01 111:13:05
TRACK 49 AUDIO
TITLE “Sweet Georgia Brown”
PERFORMER “Brother Bones”
REM COMMENT “Set 4: J-Rocc”
INDEX 01 113:23:74
TRACK 50 AUDIO
TITLE “Two Three Four”
PERFORMER “Novi Singers”
REM COMMENT “Set 4: J-Rocc”
INDEX 01 113:48:62
TRACK 51 AUDIO
TITLE “Live Performance/Intro”
PERFORMER “Shooby Taylor”
REM COMMENT “Set 4: J-Rocc”
INDEX 01 114:44:23
TRACK 52 AUDIO
TITLE “Gigi”
PERFORMER “Shooby Taylor”
REM COMMENT “Set 4: J-Rocc”
INDEX 01 115:26:17
TRACK 53 AUDIO
TITLE “Interlude / Take It Back”
PERFORMER “Madlib & J-Rocc / Jose Mauro & Ana Maria Bahiana”
REM COMMENT “Set 4: J-Rocc”
INDEX 01 116:29:29

Comment from Thomas of Core News
Time September 6, 2010 at 8:27 am

Thanks :)

Comment from e-digga
Time October 31, 2010 at 11:53 pm

@ 25:12 it’s Andrew Hill’s “A Tender Tale”

Comment from e-digga
Time November 1, 2010 at 12:03 am

@ 24:51 Andrew Hill “Mother Mercy” (same album)

Comment from Naveen
Time November 1, 2010 at 1:00 am

Good find!

Comment from e-digga
Time November 4, 2010 at 11:19 pm

in Madlib’s 1st set:
song 1: Steve Grossman “Moon Dance”
song 2: Quintetto Santucci Scoppa “Deep Look”

Comment from e-digga
Time November 20, 2010 at 3:46 am

INDEX 01 19:04:08 is Byron Morris (not Miller) é Unity – “Panamanian Aire”

Comment from e-digga
Time February 22, 2011 at 3:35 pm

INDEX 01 08:23:38 Joseph Jarman & Don Moye “Mama Marimba”

Comment from justin herschel
Time November 7, 2012 at 6:20 am

please send me a re-up link

Comment from joblow
Time December 17, 2012 at 7:01 pm

really looking for a link too

Comment from Adrian
Time June 4, 2014 at 3:34 am

Could someone reup this?

Write a comment